на главную     acvis     контакты     вакансии     перед заказом  
Конверт для CD
Производство DVD
Тираж DVD
Запись DVD
Производство СD
Запись CD
Тираж CD
CD диски
DVD диски
CD каталог
Тираж презентационных дисков
Тираж дисков
Тиражирование CD
Акватерм 2012
Тиражирование дисков Киев
Пластиковые коробки для CD
Пластиковые коробки для DVD
Тиражирование DVD

 

Тиражирование
CD и DVD

4.1 Запись и печать CD / DVD
4.1.1 Тираж CD / CD-R дисков
4.1.2 Тираж DVD / DVD-R дисков
4.1.3 Тираж Мини DVD
4.1.4 Тираж CD-Визиток
4.2 Упаковка для CD и DVD
4.3 Разработка презентаций

 Ознакомьтесь перед заказом

 Технологии производства
 и тиражирования CD и DVD

 Какие диски контрольными
 марками не маркируются.

 Гарантийное письмо для заказа
 тиража CD или DVD дисков

 Требования к макетам
 для печати CD и DVD дисков

 Требования к мастер дискам
 для записи CD-R и DVD-R

 Требования к макетам
 для печати вкладышей

Примеры печати
CD и DVD

Информация о других видах продукции и работ:

Интерьерная и наружная реклама


Выставочное оборудование


Сувенирная и promo продукция


Аудио и видео реклама

Как самому создать диск защищенный от копирования





Рецепт 1.

Создадим диск, содержащий две дорожки с данными, т.е. по сути дела эту защиту можно классифицировать как Illegal TOC (некорректная таблица содержания файловой системы на диске). К примеру, возьмем диск с игрой Crash Bandicoot 3 для Sony Playstation.

Предже всего необходимо взять программу CDRWin не ниже версии 3.6 и сделать образ этого диска. Файл описания (CUE-file) должен выглядеть примерно так:

FILE "C:TEMPCRASH3.BIN" BINARY
TRACK 01 MODE2/2352
INDEX 01 00:00:00


В меню заходим в CDRWin -> Record Disc -> Load Cuesheet и смотрим на величину Total Disc Time (например, она равна 32:36:12). Теперь добавляем ложный трэк (dummy), прописывая его непосредственно в файле описания (cue file) при помощи любого текстового редактора, хотя бы notepad. Выставляем Total Disc Time на две секунды меньше

FILE "C:TEMPCRASH3.BIN" BINARY
TRACK 01 MODE2/2352
INDEX 01 00:00:00
TRACK 02 MODE2/2352
INDEX 01 32:34:12


<-- Total Disc Time (32:36:12) minus 2 seconds Теперь заглянем в CDRWin -> Record Disc -> Disc Layout... и увидим, что добавленный трэк начинается в 32:36:12 (не в 32:34:12). Это время равно начальному времени LeadOut, поэтому оно не пересекается с данными. Теперь можно смело записывать диск, содержащий два трэка.

Эта копия будет прекрасно работатть на приставке, но копироваться не захочет. Nero Burning Rom, единственная программа, которая без проблем скопирует его, но только если вы считываете тем же приводом, что и записываете. Такой трюк будет также работать и с аудиодисками. Можно записывать также и в смешанном режиме (MixedMode CD), но теперь необходимо обрезать не 2, а 4 секунды.

Интересно, как насчет CloneCD.

Рецепт 2.

Вот другой рецепт основанный на той же идее. Если другой трэк имеет тип (mode), то CD не будет копироваться вообще. По крайней мере NERO, CDRWin и EasyCD не справляются. CUE-file должен выглядеть так

FILE "HMM3.BIN" BINARY
TRACK 01 MODE1/2352
INDEX 01 00:00:00
TRACK 02 MODE2/2352
INDEX 01 73:30:45

Рецепт 3.

Можно воспользоваться программой Freelock. Она изменяет расположение образа CD до записи, что делает невозможным копирование (или почти невозможным). По крайней мере эта защита лучше чем ничего.

Freelock необходимо запускать с преднамеренно поврежденнйо дискеты. Это, собственно, основной момент. Такую дискету можно сделать, разархивировав все файлы с flock13.zip на жесткий диск и запустив INSTALL.BAT.

Рецепт 4.

Encryption Plus for CD-ROM (EPCD) - программа, шифрующая информация, которую необходимо защитить от посторонних глаз. Информацию можно скопировать с носителя. Структура файловой системы также не изменяется, злоумышленник все еще может прочитать названия файлов и директорий, но их содержимое зашифровано. CDROM, зашифрованный при помощи EPCD, можно использовать только на машине авторизованного пользователя, на которой установлен специальный дешифрующий сервис. Вся дешифровка происходит налету, пользователь даже не знает об этом.

Триальная версия программы истекает через 30 дней.



автор: ООО Репликатор

Статьи по тиражированию, печати и упаковке CD, DVD, BR дисков:

Новости и события: I-O DATA BRD-U8S: рекордер с поддержкой Blu-ray 3D, DVD и CD дисков

Новости и события: DVD-«резак» Samsung SH-222A в версии с SATA-интерфейсом

Новости и события: ASUS DRW-24B5ST: DVD-рекордер с ПО от Nero AG и Cyberlink

Новости и события: Два внешних тонких привода LG с поддержкой BDXL-дисков

Словарь терминов использующихся при копировании (дублировании) тиражировании CD

Как самому создать диск защищенный от копирования

Основные различия DVD +R(W) и DVD -R(W) дисков

Как долго могут храниться записанные CD диски?

Новости и события: Lite-On представила 12x Blu-ray DVD рекордер за $90

Хорошие цены, быстрая проверка наличия шин, доставка по Киеву - Зимние шины со склада в Киеве
acvis.com.ua. 10 из 10 на основе 35 оценок. 6 пользовательских отзывов.
© Copyright Acvis 2004-2016